* Dettagli Torrent   globale  | Commenti (1) 


- Poldark.2015.S05E03-04.1080p.BDMux.ITA.ENG.x264-BlackBit -


Download via torrent:
Categoria bittorrent SerieTv
Descrizione
Poldark - Stagione 5



DATI
Titolo originale Poldark
Paese Regno Unito
Anno 2015-2019
Formato serie TV
Genere in costume, sentimentale
Stagioni 5
Episodi 43
Durata 60 min (episodio)
Lingua originale inglese
Rapporto 16:9

TRAMA
Alla fine del XVIII secolo, Ross Poldark torna alle sue miniere di rame in Cornovaglia dopo aver combattuto per il suo Paese nella Guerra d'indipendenza americana per tre anni, lasciando dietro di sé la sua amata Elizabeth. Al suo ritorno, scopre che molte cose sono cambiate: suo padre è morto, il suo patrimonio è in rovina e Elizabeth è diventata la promessa sposa di suo cugino Francis Poldark. Bisognoso di aiuto, assume una sguattera, Demelza, dopo averla salvata da un pestaggio. Deciso a rimettere in piedi la sua miniera di rame, l'uomo deve affrontare a più riprese le angherie di George Warleggan, ricco banchiere del luogo.


IMMAGINI







REPORT
General
Unique ID : 310037261126409696176306627410728147154 (0xE93F01276E46914707CF44BF679958D2)
Complete name : C:UsersAdministratorVideosPoldark S05Poldark.2015.S05E01.Episodio.Uno.1080p.BDMux.ITA.ENG.x264-BlackBit.mkv
Format : Matroska
Format version : Version 4
File size : 4.45 GiB
Duration : 57 min 53 s
Overall bit rate : 11.0 Mb/s
Encoded date : UTC 2020-01-03 22:32:23
Writing application : mkvmerge v41.0.0 ('Smarra&#39 64-bit
Writing library : libebml v1.3.9 + libmatroska v1.5.2

Video
ID : 1
Format : AVC
Format/Info : Advanced Video Codec
Format profile : [email protected]
Format settings : CABAC / 4 Ref Frames
Format settings, CABAC : Yes
Format settings, Reference : 4 frames
Codec ID : V_MPEG4/ISO/AVC
Duration : 57 min 53 s
Bit rate : 9 296 kb/s
Width : 1 920 pixels
Height : 1 080 pixels
Display aspect ratio : 16:9
Frame rate mode : Constant
Frame rate : 25.000 FPS
Color space : YUV
Chroma subsampling : 4:2:0
Bit depth : 8 bits
Scan type : Progressive
Bits/(Pixel*Frame) : 0.179
Stream size : 3.76 GiB (85%)
Writing library : x264 core 158 r2984 3759fcb
Encoding settings : cabac=1 / ref=4 / deblock=1:-3:-3 / analyse=0x3:0x113 / me=umh / subme=8 / psy=1 / psy_rd=1.00:0.00 / mixed_ref=1 / me_range=32 / chroma_me=1 / trellis=2 / 8x8dct=1 / cqm=0 / deadzone=21,11 / fast_pskip=1 / chroma_qp_offset=-2 / threads=18 / lookahead_threads=3 / sliced_threads=0 / nr=0 / decimate=1 / interlaced=0 / bluray_compat=0 / constrained_intra=0 / bframes=3 / b_pyramid=2 / b_adapt=2 / b_bias=0 / direct=3 / weightb=1 / open_gop=0 / weightp=2 / keyint=250 / keyint_min=25 / scenecut=40 / intra_refresh=0 / rc_lookahead=50 / rc=2pass / mbtree=1 / bitrate=9296 / ratetol=1.0 / qcomp=0.60 / qpmin=0 / qpmax=69 / qpstep=4 / cplxblur=20.0 / qblur=0.5 / ip_ratio=1.40 / aq=3:0.80
Default : Yes
Forced : Yes

Audio #1
ID : 2
Format : AC-3
Format/Info : Audio Coding 3
Commercial name : Dolby Digital
Codec ID : A_AC3
Duration : 57 min 49 s
Bit rate mode : Constant
Bit rate : 192 kb/s
Channel(s) : 2 channels
Channel layout : L R
Sampling rate : 48.0 kHz
Frame rate : 31.250 FPS (1536 SPF)
Compression mode : Lossy
Stream size : 79.4 MiB (2%)
Language : Italian
Service kind : Complete Main
Default : Yes
Forced : Yes

Audio #2
ID : 3
Format : DTS
Format/Info : Digital Theater Systems
Codec ID : A_DTS
Duration : 57 min 53 s
Bit rate mode : Constant
Bit rate : 1 509 kb/s
Channel(s) : 6 channels
Channel layout : C L R Ls Rs LFE
Sampling rate : 48.0 kHz
Frame rate : 93.750 FPS (512 SPF)
Bit depth : 24 bits
Compression mode : Lossy
Stream size : 625 MiB (14%)
Language : English
Default : No
Forced : No

Text #1
ID : 4
Format : UTF-8
Codec ID : S_TEXT/UTF8
Codec ID/Info : UTF-8 Plain Text
Duration : 57 min 12 s
Bit rate : 0 b/s
Count of elements : 4
Stream size : 119 Bytes (0%)
Language : Italian
Default : Yes
Forced : Yes

Text #2
ID : 5
Format : UTF-8
Codec ID : S_TEXT/UTF8
Codec ID/Info : UTF-8 Plain Text
Duration : 57 min 18 s
Bit rate : 60 b/s
Count of elements : 770
Stream size : 25.4 KiB (0%)
Language : Italian
Default : No
Forced : No

Menu
00:00:00.000 : en:Chapter 01
00:13:59.880 : en:Chapter 02
00:31:19.960 : en:Chapter 03
00:45:02.520 : en:Chapter 04

CREDITI BlackBit
Info: Per scaricare devi usare un client come uTorrent o Transmission
AnnounceURL
udp://tracker.coppersurfer.tk:6969/announce
Hash 70aab6095e4ab3bd1838e9db4ee8c65b7cdd910e
Peers seeds: 9 , leech: 7
Size 8.89 GB
Completato 339x
Aggiunto 04.01.20 - 18:01:46
Uploader Anonymous
Votazione (Voti: 0)


Condividi questo bittorrent:


html/blog:


bbcode/forum:




Aggiungi Commento
Ultimi commenti
 jackal98jackal98   
Grazie
05/01 11.00
Tutti commenti (1)